Deconstructed & How It's Made Part 1 ~=Kck=~

DECONSTRUCTED & HOW IT's MADE Part 1 ~=KCK=~ Video / Discovery Channel / TV Shows

  • 249 MB
  • 1 S
  • 0 L
  • Apr 2011

Download fast (14 free days): Download torrent Magnet link

Description(s):

Filesh

DECONSTRUCTED & HOW IT's MADE Part 1 ~=KCK=~
PLEASE SEED BACK AFTER DOWNLOADING
CHECK MY OTHER UPLOADS:-
"PROFILE LINK"I have shared some videos of DECONSTRUCTED and How It's Made. Rip Info and screens has been shown below. Enjoy Guys..
RIP INFOGeneral
Complete name : F:\DECONSTRUCTED\Catalytic Converter Deconstructed.mp4
Format : MPEG-4
Format profile : Base Media / Version 2
Codec ID : mp42
File size : 18.4 MiB
Duration : 4mn 34s
Overall bit rate : 563 Kbps
Encoded date : UTC 2010-01-08 01:33:36
Tagged date : UTC 2010-01-08 01:33:36
gsst : 0
gstd : 274946
gssd : B4A7DA9A4MH1303203643684283
gshh : v9.lscache6.c.youtube.com
Video
ID : 2
Format : AVC
Format/Info : Advanced Video Codec
Format profile : [email protected]
Format settings, CABAC : No
Format settings, ReFrames : 1 frame
Format settings, GOP : M=1, N=60
Codec ID : avc1
Codec ID/Info : Advanced Video Coding
Duration : 4mn 34s
Bit rate mode : Variable
Bit rate : 428 Kbps
Maximum bit rate : 1 536 Kbps
Width : 480 pixels
Height : 276 pixels
Display aspect ratio : 16:9
Frame rate mode : Constant
Frame rate : 29.970 fps
Color space : YUV
Chroma subsampling : 4:2:0
Bit depth : 8 bits
Scan type : Progressive
Bits/(Pixel*Frame) : 0.108
Stream size : 14.0 MiB (76%)
Title : (C) 2007 Google Inc. v08.13.2007.
Encoded date : UTC 2010-01-08 01:33:36
Tagged date : UTC 2010-01-08 01:33:36
Audio
ID : 1
Format : AAC
Format/Info : Advanced Audio Codec
Format profile : LC
Codec ID : 40
Duration : 4mn 34s
Bit rate mode : Variable
Bit rate : 132.3 Kbps
Maximum bit rate : 152 Kbps
Channel(s) : 2 channels
Channel positions : Front: L R
Sampling rate : 44.1 KHz
Compression mode : Lossy
Stream size : 4.36 MiB (24%)
Title : (C) 2007 Google Inc. v08.13.2007.
Encoded date : UTC 2010-01-08 01:33:36
Tagged date : UTC 2010-01-08 01:33:36
General
Complete name : F:\DECONSTRUCTED\Compact Fluorescent Light Bulb Deconstructed.mp4
Format : MPEG-4
Format profile : Base Media / Version 2
Codec ID : mp42
File size : 18.5 MiB
Duration : 5mn 3s
Overall bit rate : 510 Kbps
Encoded date : UTC 2010-01-25 13:30:31
Tagged date : UTC 2010-01-25 13:30:31
gsst : 0
gstd : 304041
gssd : BB64FFE86MM1303191302657004
gshh : v3.lscache7.c.youtube.com
Video
ID : 2
Format : AVC
Format/Info : Advanced Video Codec
Format profile : [email protected]
Format settings, CABAC : No
Format settings, ReFrames : 1 frame
Format settings, GOP : M=1, N=60
Codec ID : avc1
Codec ID/Info : Advanced Video Coding
Duration : 5mn 3s
Bit rate mode : Variable
Bit rate : 378 Kbps
Maximum bit rate : 1 055 Kbps
Width : 480 pixels
Height : 276 pixels
Display aspect ratio : 16:9
Frame rate mode : Constant
Frame rate : 29.970 fps
Color space : YUV
Chroma subsampling : 4:2:0
Bit depth : 8 bits
Scan type : Progressive
Bits/(Pixel*Frame) : 0.095
Stream size : 13.7 MiB (74%)
Title : (C) 2007 Google Inc. v08.13.2007.
Encoded date : UTC 2010-01-25 13:30:31
Tagged date : UTC 2010-01-25 13:30:31
Audio
ID : 1
Format : AAC
Format/Info : Advanced Audio Codec
Format profile : LC
Codec ID : 40
Duration : 5mn 3s
Bit rate mode : Variable
Bit rate : 129 Kbps
Maximum bit rate : 161 Kbps
Channel(s) : 2 channels
Channel positions : Front: L R
Sampling rate : 44.1 KHz
Compression mode : Lossy
Stream size : 4.69 MiB (25%)
Title : (C) 2007 Google Inc. v08.13.2007.
Encoded date : UTC 2010-01-25 13:30:31
Tagged date : UTC 2010-01-25 13:30:31
General
Complete name : F:\DECONSTRUCTED\Deconstructed - Bread Toaster.mp4
Format : MPEG-4
Format profile : Base Media / Version 2
Codec ID : mp42
File size : 7.91 MiB
Duration : 3mn 1s
Overall bit rate : 365 Kbps
Encoded date : UTC 2009-11-08 08:06:48
Tagged date : UTC 2009-11-08 08:06:48
gsst : 0
gstd : 182066
gssd : BB64FFE84MH1303139519667821
gshh : v9.lscache4.c.youtube.com
Video
ID : 2
Format : AVC
Format/Info : Advanced Video Codec
Format profile : [email protected]
Format settings, CABAC : No
Format settings, ReFrames : 1 frame
Codec ID : avc1
Codec ID/Info : Advanced Video Coding
Duration : 3mn 1s
Bit rate mode : Variable
Bit rate : 270 Kbps
Maximum bit rate : 699 Kbps
Width : 400 pixels
Height : 300 pixels
Display aspect ratio : 4:3
Frame rate mode : Constant
Frame rate : 29.970 fps
Color space : YUV
Chroma subsampling : 4:2:0
Bit depth : 8 bits
Scan type : Progressive
Bits/(Pixel*Frame) : 0.075
Stream size : 5.83 MiB (74%)
Title : (C) 2007 Google Inc. v08.13.2007.
Encoded date : UTC 2009-11-08 08:06:48
Tagged date : UTC 2009-11-08 08:06:48
Audio
ID : 1
Format : AAC
Format/Info : Advanced Audio Codec
Format profile : LC
Codec ID : 40
Duration : 3mn 1s
Bit rate mode : Variable
Bit rate : 92.9 Kbps
Maximum bit rate : 115 Kbps
Channel(s) : 2 channels
Channel positions : Front: L R
Sampling rate : 44.1 KHz
Compression mode : Lossy
Stream size : 2.02 MiB (25%)
Title : (C) 2007 Google Inc. v08.13.2007.
Encoded date : UTC 2009-11-08 08:06:48
Tagged date : UTC 2009-11-08 08:06:48
General
Complete name : F:\DECONSTRUCTED\Deconstructed - Hot Water Heater - How It Works.mp4
Format : MPEG-4
Format profile : Base Media / Version 2
Codec ID : mp42
File size : 16.1 MiB
Duration : 4mn 1s
Overall bit rate : 560 Kbps
Encoded date : UTC 2009-02-11 17:42:24
Tagged date : UTC 2009-02-11 17:42:24
gsst : 0
gstd : 241741
gssd : BB64FFE8BMM1303195969762126
gshh : v16.lscache8.c.youtube.com
Video
ID : 2
Format : AVC
Format/Info : Advanced Video Codec
Format profile : [email protected]
Format settings, CABAC : No
Format settings, ReFrames : 1 frame
Format settings, GOP : M=1, N=61
Codec ID : avc1
Codec ID/Info : Advanced Video Coding
Duration : 4mn 1s
Bit rate mode : Variable
Bit rate : 431 Kbps
Maximum bit rate : 3 322 Kbps
Width : 480 pixels
Height : 270 pixels
Display aspect ratio : 16:9
Frame rate mode : Constant
Frame rate : 30.000 fps
Color space : YUV
Chroma subsampling : 4:2:0
Bit depth : 8 bits
Scan type : Progressive
Bits/(Pixel*Frame) : 0.111
Stream size : 12.4 MiB (77%)
Title : (C) 2007 Google Inc. v08.13.2007.
Encoded date : UTC 2009-02-11 17:42:24
Tagged date : UTC 2009-02-11 17:42:24
Audio
ID : 1
Format : AAC
Format/Info : Advanced Audio Codec
Format profile : LC
Codec ID : 40
Duration : 4mn 1s
Bit rate mode : Variable
Bit rate : 125 Kbps
Maximum bit rate : 156 Kbps
Channel(s) : 2 channels
Channel positions : Front: L R
Sampling rate : 44.1 KHz
Compression mode : Lossy
Stream size : 3.61 MiB (22%)
Title : (C) 2007 Google Inc. v08.13.2007.
Encoded date : UTC 2009-02-11 17:42:24
Tagged date : UTC 2009-02-11 17:42:24
General
Complete name : F:\DECONSTRUCTED\Deconstructed - Lawn Mower.mp4
Format : MPEG-4
Format profile : Base Media / Version 2
Codec ID : mp42
File size : 9.17 MiB
Duration : 2mn 59s
Overall bit rate : 429 Kbps
Encoded date : UTC 2009-11-08 08:13:49
Tagged date : UTC 2009-11-08 08:13:49
gsst : 0
gstd : 179815
gssd : B4A7DA9A3MH1303196795692748
gshh : v18.lscache4.c.youtube.com
Video
ID : 2
Format : AVC
Format/Info : Advanced Video Codec
Format profile : [email protected]
Format settings, CABAC : No
Format settings, ReFrames : 1 frame
Codec ID : avc1
Codec ID/Info : Advanced Video Coding
Duration : 2mn 59s
Bit rate mode : Variable
Bit rate : 333 Kbps
Maximum bit rate : 660 Kbps
Width : 400 pixels
Height : 300 pixels
Display aspect ratio : 4:3
Frame rate mode : Constant
Frame rate : 29.970 fps
Color space : YUV
Chroma subsampling : 4:2:0
Bit depth : 8 bits
Scan type : Progressive
Bits/(Pixel*Frame) : 0.093
Stream size : 7.13 MiB (78%)
Title : (C) 2007 Google Inc. v08.13.2007.
Encoded date : UTC 2009-11-08 08:13:49
Tagged date : UTC 2009-11-08 08:13:49
Audio
ID : 1
Format : AAC
Format/Info : Advanced Audio Codec
Format profile : LC
Codec ID : 40
Duration : 2mn 59s
Bit rate mode : Variable
Bit rate : 92.8 Kbps
Maximum bit rate : 116 Kbps
Channel(s) : 2 channels
Channel positions : Front: L R
Sampling rate : 44.1 KHz
Compression mode : Lossy
Stream size : 1.99 MiB (22%)
Title : (C) 2007 Google Inc. v08.13.2007.
Encoded date : UTC 2009-11-08 08:13:49
Tagged date : UTC 2009-11-08 08:13:49
General
Complete name : F:\DECONSTRUCTED\Deconstructed - Propane Grill.mp4
Format : MPEG-4
Format profile : Base Media / Version 2
Codec ID : mp42
File size : 7.03 MiB
Duration : 2mn 44s
Overall bit rate : 359 Kbps
Encoded date : UTC 2009-11-08 08:15:41
Tagged date : UTC 2009-11-08 08:15:41
gsst : 0
gstd : 164605
gssd : B4A7DA9A5MH1303197495645745
gshh : v5.lscache7.c.youtube.com
Video
ID : 2
Format : AVC
Format/Info : Advanced Video Codec
Format profile : [email protected]
Format settings, CABAC : No
Format settings, ReFrames : 1 frame
Codec ID : avc1
Codec ID/Info : Advanced Video Coding
Duration : 2mn 44s
Bit rate mode : Variable
Bit rate : 263 Kbps
Maximum bit rate : 645 Kbps
Width : 400 pixels
Height : 300 pixels
Display aspect ratio : 4:3
Frame rate mode : Constant
Frame rate : 29.970 fps
Color space : YUV
Chroma subsampling : 4:2:0
Bit depth : 8 bits
Scan type : Progressive
Bits/(Pixel*Frame) : 0.073
Stream size : 5.15 MiB (73%)
Title : (C) 2007 Google Inc. v08.13.2007.
Encoded date : UTC 2009-11-08 08:15:41
Tagged date : UTC 2009-11-08 08:15:41
Audio
ID : 1
Format : AAC
Format/Info : Advanced Audio Codec
Format profile : LC
Codec ID : 40
Duration : 2mn 44s
Bit rate mode : Variable
Bit rate : 92.8 Kbps
Maximum bit rate : 115 Kbps
Channel(s) : 2 channels
Channel positions : Front: L R
Sampling rate : 44.1 KHz
Compression mode : Lossy
Stream size : 1.82 MiB (26%)
Title : (C) 2007 Google Inc. v08.13.2007.
Encoded date : UTC 2009-11-08 08:15:41
Tagged date : UTC 2009-11-08 08:15:41
General
Complete name : F:\DECONSTRUCTED\Deconstructed - The Coin Changer - How It Works.mp4
Format : MPEG-4
Format profile : Base Media / Version 2
Codec ID : mp42
File size : 12.0 MiB
Duration : 3mn 29s
Overall bit rate : 481 Kbps
Encoded date : UTC 2009-02-11 12:59:51
Tagged date : UTC 2009-02-11 12:59:51
gsst : 0
gstd : 209675
gssd : BB64FFE85MM1303194464984001
gshh : v18.lscache3.c.youtube.com
Video
ID : 2
Format : AVC
Format/Info : Advanced Video Codec
Format profile : [email protected]
Format settings, CABAC : No
Format settings, ReFrames : 1 frame
Codec ID : avc1
Codec ID/Info : Advanced Video Coding
Duration : 3mn 29s
Bit rate mode : Variable
Bit rate : 352 Kbps
Maximum bit rate : 1 338 Kbps
Width : 480 pixels
Height : 270 pixels
Display aspect ratio : 16:9
Frame rate mode : Constant
Frame rate : 30.000 fps
Color space : YUV
Chroma subsampling : 4:2:0
Bit depth : 8 bits
Scan type : Progressive
Bits/(Pixel*Frame) : 0.090
Stream size : 8.77 MiB (73%)
Title : (C) 2007 Google Inc. v08.13.2007.
Encoded date : UTC 2009-02-11 12:59:51
Tagged date : UTC 2009-02-11 12:59:51
Audio
ID : 1
Format : AAC
Format/Info : Advanced Audio Codec
Format profile : LC
Codec ID : 40
Duration : 3mn 29s
Bit rate mode : Variable
Bit rate : 126 Kbps
Maximum bit rate : 152 Kbps
Channel(s) : 2 channels
Channel positions : Front: L R
Sampling rate : 44.1 KHz
Compression mode : Lossy
Stream size : 3.15 MiB (26%)
Title : (C) 2007 Google Inc. v08.13.2007.
Encoded date : UTC 2009-02-11 12:59:51
Tagged date : UTC 2009-02-11 12:59:51
General
Complete name : F:\DECONSTRUCTED\Deconstructed - Transformer Induction.mp4
Format : MPEG-4
Format profile : Base Media / Version 2
Codec ID : mp42
File size : 8.09 MiB
Duration : 2mn 53s
Overall bit rate : 390 Kbps
Encoded date : UTC 2009-11-08 08:21:38
Tagged date : UTC 2009-11-08 08:21:38
gsst : 0
gstd : 174426
gssd : BB64FFE8AMH1303196455113277
gshh : v15.lscache3.c.youtube.com
Video
ID : 2
Format : AVC
Format/Info : Advanced Video Codec
Format profile : [email protected]
Format settings, CABAC : No
Format settings, ReFrames : 1 frame
Codec ID : avc1
Codec ID/Info : Advanced Video Coding
Duration : 2mn 53s
Bit rate mode : Variable
Bit rate : 295 Kbps
Maximum bit rate : 739 Kbps
Width : 400 pixels
Height : 300 pixels
Display aspect ratio : 4:3
Frame rate mode : Constant
Frame rate : 29.970 fps
Color space : YUV
Chroma subsampling : 4:2:0
Bit depth : 8 bits
Scan type : Progressive
Bits/(Pixel*Frame) : 0.082
Stream size : 6.11 MiB (75%)
Title : (C) 2007 Google Inc. v08.13.2007.
Encoded date : UTC 2009-11-08 08:21:38
Tagged date : UTC 2009-11-08 08:21:39
Audio
ID : 1
Format : AAC
Format/Info : Advanced Audio Codec
Format profile : LC
Codec ID : 40
Duration : 2mn 53s
Bit rate mode : Variable
Bit rate : 92.8 Kbps
Maximum bit rate : 120 Kbps
Channel(s) : 2 channels
Channel positions : Front: L R
Sampling rate : 44.1 KHz
Compression mode : Lossy
Stream size : 1.93 MiB (24%)
Title : (C) 2007 Google Inc. v08.13.2007.
Encoded date : UTC 2009-11-08 08:21:38
Tagged date : UTC 2009-11-08 08:21:39
General
Complete name : F:\DECONSTRUCTED\Deconstructed Hard Diskdrive.mp4
Format : MPEG-4
Format profile : Base Media / Version 2
Codec ID : mp42
File size : 23.5 MiB
Duration : 4mn 49s
Overall bit rate : 681 Kbps
Encoded date : UTC 2010-09-16 19:49:57
Tagged date : UTC 2010-09-16 19:49:57
gsst : 0
gstd : 289598
gssd : BB64FFE85MH1303139952207544
gshh : v18.lscache6.c.youtube.com
Video
ID : 2
Format : AVC
Format/Info : Advanced Video Codec
Format profile : [email protected]
Format settings, CABAC : No
Format settings, ReFrames : 1 frame
Format settings, GOP : M=1, N=60
Codec ID : avc1
Codec ID/Info : Advanced Video Coding
Duration : 4mn 49s
Bit rate mode : Variable
Bit rate : 540 Kbps
Maximum bit rate : 1 613 Kbps
Width : 480 pixels
Height : 320 pixels
Display aspect ratio : 3:2
Frame rate mode : Constant
Frame rate : 29.970 fps
Color space : YUV
Chroma subsampling : 4:2:0
Bit depth : 8 bits
Scan type : Progressive
Bits/(Pixel*Frame) : 0.117
Stream size : 18.6 MiB (79%)
Title : (C) 2007 Google Inc. v08.13.2007.
Encoded date : UTC 2010-09-16 19:49:57
Tagged date : UTC 2010-09-16 19:49:57
Audio
ID : 1
Format : AAC
Format/Info : Advanced Audio Codec
Format profile : LC
Codec ID : 40
Duration : 4mn 49s
Bit rate mode : Variable
Bit rate : 139 Kbps
Maximum bit rate : 164 Kbps
Channel(s) : 2 channels
Channel positions : Front: L R
Sampling rate : 44.1 KHz
Compression mode : Lossy
Stream size : 4.79 MiB (20%)
Title : (C) 2007 Google Inc. v08.13.2007.
Encoded date : UTC 2010-09-16 19:49:57
Tagged date : UTC 2010-09-16 19:49:57
General
Complete name : F:\DECONSTRUCTED\Deconstructed_ Electric Guitar.mp4
Format : MPEG-4
Format profile : Base Media / Version 2
Codec ID : mp42
File size : 13.3 MiB
Duration : 4mn 43s
Overall bit rate : 393 Kbps
Encoded date : UTC 2008-11-03 05:43:58
Tagged date : UTC 2008-11-03 05:43:58
gsst : 0
gstd : 283723
gssd : BB64FFE84MM1303195303554030
gshh : v9.lscache5.c.youtube.com
Video
ID : 2
Format : AVC
Format/Info : Advanced Video Codec
Format profile : [email protected]
Format settings, CABAC : No
Format settings, ReFrames : 1 frame
Codec ID : avc1
Codec ID/Info : Advanced Video Coding
Duration : 4mn 43s
Bit rate mode : Variable
Bit rate : 265 Kbps
Maximum bit rate : 1 088 Kbps
Width : 352 pixels
Height : 262 pixels
Display aspect ratio : 4:3
Frame rate mode : Constant
Frame rate : 29.970 fps
Color space : YUV
Chroma subsampling : 4:2:0
Bit depth : 8 bits
Scan type : Progressive
Bits/(Pixel*Frame) : 0.096
Stream size : 8.94 MiB (67%)
Title : (C) 2007 Google Inc. v08.13.2007.
Encoded date : UTC 2008-11-03 05:43:58
Tagged date : UTC 2008-11-03 05:43:59
Audio
ID : 1
Format : AAC
Format/Info : Advanced Audio Codec
Format profile : LC
Codec ID : 40
Duration : 4mn 43s
Bit rate mode : Variable
Bit rate : 125 Kbps
Maximum bit rate : 161 Kbps
Channel(s) : 2 channels
Channel positions : Front: L R
Sampling rate : 44.1 KHz
Compression mode : Lossy
Stream size : 4.24 MiB (32%)
Title : (C) 2007 Google Inc. v08.13.2007.
Encoded date : UTC 2008-11-03 05:43:58
Tagged date : UTC 2008-11-03 05:43:59
General
Complete name : F:\DECONSTRUCTED\DECS.txt
File size : 1.12 KiB
General
Complete name : F:\DECONSTRUCTED\How It_s Made Electrical Wires.mp4
Format : MPEG-4
Format profile : Base Media / Version 2
Codec ID : mp42
File size : 22.5 MiB
Duration : 4mn 45s
Overall bit rate : 659 Kbps
Encoded date : UTC 2009-12-28 07:00:59
Tagged date : UTC 2009-12-28 07:00:59
gsst : 0
gstd : 286255
gssd : B4A7DA9A1MM1303208276526375
gshh : v1.lscache3.c.youtube.com
Video
ID : 2
Format : AVC
Format/Info : Advanced Video Codec
Format profile : [email protected]
Format settings, CABAC : No
Format settings, ReFrames : 1 frame
Format settings, GOP : M=1, N=60
Codec ID : avc1
Codec ID/Info : Advanced Video Coding
Duration : 4mn 45s
Bit rate mode : Variable
Bit rate : 539 Kbps
Maximum bit rate : 1 782 Kbps
Width : 480 pixels
Height : 360 pixels
Display aspect ratio : 4:3
Frame rate mode : Constant
Frame rate : 30.000 fps
Color space : YUV
Chroma subsampling : 4:2:0
Bit depth : 8 bits
Scan type : Progressive
Bits/(Pixel*Frame) : 0.104
Stream size : 18.4 MiB (82%)
Title : (C) 2007 Google Inc. v08.13.2007.
Encoded date : UTC 2009-12-28 07:00:59
Tagged date : UTC 2009-12-28 07:00:59
Audio
ID : 1
Format : AAC
Format/Info : Advanced Audio Codec
Format profile : LC
Codec ID : 40
Duration : 4mn 45s
Bit rate mode : Variable
Bit rate : 118 Kbps
Maximum bit rate : 134 Kbps
Channel(s) : 2 channels
Channel positions : Front: L R
Sampling rate : 44.1 KHz
Compression mode : Lossy
Stream size : 4.02 MiB (18%)
Title : (C) 2007 Google Inc. v08.13.2007.
Encoded date : UTC 2009-12-28 07:00:59
Tagged date : UTC 2009-12-28 07:00:59
General
Complete name : F:\DECONSTRUCTED\How It_s Made Headphones.mp4
Format : MPEG-4
Format profile : Base Media / Version 2
Codec ID : mp42
File size : 21.5 MiB
Duration : 5mn 0s
Overall bit rate : 602 Kbps
Encoded date : UTC 2009-12-29 04:43:15
Tagged date : UTC 2009-12-29 04:43:15
gsst : 0
gstd : 300906
gssd : B4A7DA9A1MM1303206794547864
gshh : v6.lscache8.c.youtube.com
Video
ID : 2
Format : AVC
Format/Info : Advanced Video Codec
Format profile : [email protected]
Format settings, CABAC : No
Format settings, ReFrames : 1 frame
Format settings, GOP : M=1, N=60
Codec ID : avc1
Codec ID/Info : Advanced Video Coding
Duration : 5mn 0s
Bit rate mode : Variable
Bit rate : 482 Kbps
Maximum bit rate : 898 Kbps
Width : 480 pixels
Height : 360 pixels
Display aspect ratio : 4:3
Frame rate mode : Constant
Frame rate : 30.000 fps
Color space : YUV
Chroma subsampling : 4:2:0
Bit depth : 8 bits
Scan type : Progressive
Bits/(Pixel*Frame) : 0.093
Stream size : 17.3 MiB (80%)
Title : (C) 2007 Google Inc. v08.13.2007.
Encoded date : UTC 2009-12-29 04:43:15
Tagged date : UTC 2009-12-29 04:43:15
Audio
ID : 1
Format : AAC
Format/Info : Advanced Audio Codec
Format profile : LC
Codec ID : 40
Duration : 5mn 0s
Bit rate mode : Variable
Bit rate : 116 Kbps
Maximum bit rate : 134 Kbps
Channel(s) : 2 channels
Channel positions : Front: L R
Sampling rate : 44.1 KHz
Compression mode : Lossy
Stream size : 4.18 MiB (19%)
Title : (C) 2007 Google Inc. v08.13.2007.
Encoded date : UTC 2009-12-29 04:43:15
Tagged date : UTC 2009-12-29 04:43:15
General
Complete name : F:\DECONSTRUCTED\How It_s Made- Air Conditioners.mp4
Format : MPEG-4
Format profile : Base Media / Version 2
Codec ID : mp42
File size : 13.6 MiB
Duration : 2mn 59s
Overall bit rate : 636 Kbps
Encoded date : UTC 2010-09-22 15:28:17
Tagged date : UTC 2010-09-22 15:28:17
gsst : 0
gstd : 179513
gssd : BB64FFE89MH1303206247153898
gshh : v6.lscache6.c.youtube.com
Video
ID : 2
Format : AVC
Format/Info : Advanced Video Codec
Format profile : [email protected]
Format settings, CABAC : No
Format settings, ReFrames : 1 frame
Format settings, GOP : M=1, N=40
Codec ID : avc1
Codec ID/Info : Advanced Video Coding
Duration : 2mn 59s
Bit rate mode : Variable
Bit rate : 539 Kbps
Maximum bit rate : 1 074 Kbps
Width : 480 pixels
Height : 270 pixels
Display aspect ratio : 16:9
Frame rate mode : Constant
Frame rate : 29.970 fps
Color space : YUV
Chroma subsampling : 4:2:0
Bit depth : 8 bits
Scan type : Progressive
Bits/(Pixel*Frame) : 0.139
Stream size : 11.5 MiB (85%)
Title : (C) 2007 Google Inc. v08.13.2007.
Encoded date : UTC 2010-09-22 15:28:18
Tagged date : UTC 2010-09-22 15:28:18
Audio
ID : 1
Format : AAC
Format/Info : Advanced Audio Codec
Format profile : LC
Codec ID : 40
Duration : 2mn 59s
Bit rate mode : Variable
Bit rate : 93.4 Kbps
Maximum bit rate : 114 Kbps
Channel(s) : 2 channels
Channel positions : Front: L R
Sampling rate : 44.1 KHz
Compression mode : Lossy
Stream size : 2.00 MiB (15%)
Title : (C) 2007 Google Inc. v08.13.2007.
Encoded date : UTC 2010-09-22 15:28:17
Tagged date : UTC 2010-09-22 15:28:18
General
Complete name : F:\DECONSTRUCTED\How It_s Made- Smoking Pipes.mp4
Format : MPEG-4
Format profile : Base Media / Version 2
Codec ID : mp42
File size : 13.4 MiB
Duration : 2mn 57s
Overall bit rate : 635 Kbps
Encoded date : UTC 2011-01-04 18:11:52
Tagged date : UTC 2011-01-04 18:11:52
gsst : 0
gstd : 177538
gssd : B4A7DA9A5MH1303205375148586
gshh : v5.lscache4.c.youtube.com
Video
ID : 2
Format : AVC
Format/Info : Advanced Video Codec
Format profile : [email protected]
Format settings, CABAC : No
Format settings, ReFrames : 1 frame
Format settings, GOP : M=1, N=36
Codec ID : avc1
Codec ID/Info : Advanced Video Coding
Duration : 2mn 57s
Bit rate mode : Variable
Bit rate : 539 Kbps
Maximum bit rate : 1 483 Kbps
Width : 480 pixels
Height : 270 pixels
Display aspect ratio : 16:9
Frame rate mode : Constant
Frame rate : 29.917 fps
Color space : YUV
Chroma subsampling : 4:2:0
Bit depth : 8 bits
Scan type : Progressive
Bits/(Pixel*Frame) : 0.139
Stream size : 11.4 MiB (85%)
Title : (C) 2007 Google Inc. v08.13.2007.
Encoded date : UTC 2011-01-04 18:11:52
Tagged date : UTC 2011-01-04 18:11:52
Audio
ID : 1
Format : AAC
Format/Info : Advanced Audio Codec
Format profile : LC
Codec ID : 40
Duration : 2mn 57s
Bit rate mode : Variable
Bit rate : 93.4 Kbps
Maximum bit rate : 110 Kbps
Channel(s) : 2 channels
Channel positions : Front: L R
Sampling rate : 44.1 KHz
Compression mode : Lossy
Stream size : 1.98 MiB (15%)
Title : (C) 2007 Google Inc. v08.13.2007.
Encoded date : UTC 2011-01-04 18:11:52
Tagged date : UTC 2011-01-04 18:11:52
General
Complete name : F:\DECONSTRUCTED\How It_s Made- Train Rails.mp4
Format : MPEG-4
Format profile : Base Media / Version 2
Codec ID : mp42
File size : 12.9 MiB
Duration : 2mn 50s
Overall bit rate : 635 Kbps
Encoded date : UTC 2011-01-04 18:05:28
Tagged date : UTC 2011-01-04 18:05:28
gsst : 0
gstd : 170851
gssd : BB64FFE88MH1303207710303968
gshh : v13.lscache2.c.youtube.com
Video
ID : 2
Format : AVC
Format/Info : Advanced Video Codec
Format profile : [email protected]
Format settings, CABAC : No
Format settings, ReFrames : 1 frame
Format settings, GOP : M=1, N=36
Codec ID : avc1
Codec ID/Info : Advanced Video Coding
Duration : 2mn 50s
Bit rate mode : Variable
Bit rate : 539 Kbps
Maximum bit rate : 2 466 Kbps
Width : 480 pixels
Height : 270 pixels
Display aspect ratio : 16:9
Frame rate mode : Constant
Frame rate : 29.917 fps
Color space : YUV
Chroma subsampling : 4:2:0
Bit depth : 8 bits
Scan type : Progressive
Bits/(Pixel*Frame) : 0.139
Stream size : 10.9 MiB (85%)
Title : (C) 2007 Google Inc. v08.13.2007.
Encoded date : UTC 2011-01-04 18:05:28
Tagged date : UTC 2011-01-04 18:05:29
Audio
ID : 1
Format : AAC
Format/Info : Advanced Audio Codec
Format profile : LC
Codec ID : 40
Duration : 2mn 50s
Bit rate mode : Variable
Bit rate : 93.3 Kbps
Maximum bit rate : 114 Kbps
Channel(s) : 2 channels
Channel positions : Front: L R
Sampling rate : 44.1 KHz
Compression mode : Lossy
Stream size : 1.90 MiB (15%)
Title : (C) 2007 Google Inc. v08.13.2007.
Encoded date : UTC 2011-01-04 18:05:28
Tagged date : UTC 2011-01-04 18:05:29
General
Complete name : F:\DECONSTRUCTED\Hydroelectic Power - How it Works.mp4
Format : MPEG-4
Format profile : Base Media / Version 2
Codec ID : mp42
File size : 9.64 MiB
Duration : 2mn 10s
Overall bit rate : 619 Kbps
Encoded date : UTC 2007-09-17 13:11:58
Tagged date : UTC 2007-09-17 13:11:58
gsst : 0
gstd : 130611
gssd : BB64FFE8BMH1303138762900952
gshh : v16.lscache6.c.youtube.com
Video
ID : 2
Format : AVC
Format/Info : Advanced Video Codec
Format profile : [email protected]
Format settings, CABAC : No
Format settings, ReFrames : 1 frame
Format settings, GOP : M=1, N=61
Codec ID : avc1
Codec ID/Info : Advanced Video Coding
Duration : 2mn 10s
Bit rate mode : Variable
Bit rate : 501 Kbps
Maximum bit rate : 1 605 Kbps
Width : 320 pixels
Height : 180 pixels
Display aspect ratio : 16:9
Frame rate mode : Constant
Frame rate : 30.000 fps
Color space : YUV
Chroma subsampling : 4:2:0
Bit depth : 8 bits
Scan type : Progressive
Bits/(Pixel*Frame) : 0.290
Stream size : 7.80 MiB (81%)
Title : (C) 2007 Google Inc. v06.24.2007.
Encoded date : UTC 2007-09-17 13:11:58
Tagged date : UTC 2007-09-17 13:11:59
Audio
ID : 1
Format : AAC
Format/Info : Advanced Audio Codec
Format profile : LC
Codec ID : 40
Duration : 2mn 10s
Bit rate mode : Variable
Bit rate : 115 Kbps
Maximum bit rate : 135 Kbps
Channel(s) : 2 channels
Channel positions : Front: L R
Sampling rate : 44.1 KHz
Compression mode : Lossy
Stream size : 1.80 MiB (19%)
Title : (C) 2007 Google Inc. v06.24.2007.
Encoded date : UTC 2007-09-17 13:11:58
Tagged date : UTC 2007-09-17 13:11:59
General
Complete name : F:\DECONSTRUCTED\LCD Flat Panel TV Deconstructed.mp4
Format : MPEG-4
Format profile : Base Media / Version 2
Codec ID : mp42
File size : 21.2 MiB
Duration : 5mn 24s
Overall bit rate : 549 Kbps
Encoded date : UTC 2010-01-25 13:20:07
Tagged date : UTC 2010-01-25 13:20:07
gsst : 0
gstd : 325078
gssd : BB64FFE8BMM1303192716366394
gshh : v16.lscache7.c.youtube.com
Video
ID : 2
Format : AVC
Format/Info : Advanced Video Codec
Format profile : [email protected]
Format settings, CABAC : No
Format settings, ReFrames : 1 frame
Format settings, GOP : M=1, N=60
Codec ID : avc1
Codec ID/Info : Advanced Video Coding
Duration : 5mn 24s
Bit rate mode : Variable
Bit rate : 418 Kbps
Maximum bit rate : 1 155 Kbps
Width : 480 pixels
Height : 276 pixels
Display aspect ratio : 16:9
Frame rate mode : Constant
Frame rate : 29.970 fps
Color space : YUV
Chroma subsampling : 4:2:0
Bit depth : 8 bits
Scan type : Progressive
Bits/(Pixel*Frame) : 0.105
Stream size : 16.2 MiB (76%)
Title : (C) 2007 Google Inc. v08.13.2007.
Encoded date : UTC 2010-01-25 13:20:08
Tagged date : UTC 2010-01-25 13:20:08
Audio
ID : 1
Format : AAC
Format/Info : Advanced Audio Codec
Format profile : LC
Codec ID : 40
Duration : 5mn 24s
Bit rate mode : Variable
Bit rate : 128 Kbps
Maximum bit rate : 158 Kbps
Channel(s) : 2 channels
Channel positions : Front: L R
Sampling rate : 44.1 KHz
Compression mode : Lossy
Stream size : 4.95 MiB (23%)
Title : (C) 2007 Google Inc. v08.13.2007.
Encoded date : UTC 2010-01-25 13:20:07
Tagged date : UTC 2010-01-25 13:20:08
IF U LIKE MY WORK ADD REVEIW:CLICK HERE

Files (17):

  • Catalytic Converter Deconstructed.mp4 (18.4 MB)
  • Compact Fluorescent Light Bulb Deconstructed.mp4 (18.5 MB)
  • Deconstructed - Bread Toaster.mp4 (7.9 MB)
  • Deconstructed - Hot Water Heater - How It Works.mp4 (16.1 MB)
  • Deconstructed - Lawn Mower.mp4 (9.2 MB)
  • Deconstructed - Propane Grill.mp4 (7 MB)
  • Deconstructed - The Coin Changer - How It Works.mp4 (12 MB)
  • Deconstructed - Transformer Induction.mp4 (8.1 MB)
  • Deconstructed Hard Diskdrive.mp4 (23.5 MB)
  • Deconstructed_ Electric Guitar.mp4 (13.3 MB)
  • How It_s Made Electrical Wires.mp4 (22.5 MB)
  • How It_s Made Headphones.mp4 (21.5 MB)
  • How It_s Made- Air Conditioners.mp4 (13.6 MB)
  • How It_s Made- Smoking Pipes.mp4 (13.4 MB)
  • How It_s Made- Train Rails.mp4 (12.9 MB)
  • Hydroelectic Power - How it Works.mp4 (9.6 MB)
  • LCD Flat Panel TV Deconstructed.mp4 (21.2 MB)

show full list …

collapse the list

Torrof does not host any content on its servers, but allows his users to search existing torrents for "DECONSTRUCTED & HOW IT's MADE Part 1 ~=KCK=~" and download it for free from most famous Torrent Trackers: #Torrentbit, #Filesh, #Torrentsland, #Sumotorrent