Discovery Channel Inside Area 51

Discovery Channel - Inside Area 51 Video / Discovery Channel / TV Shows

  • 354 MB
  • 0 S
  • 0 L
  • May 2012

Download fast (14 free days): Download torrent Magnet link

Description(s):

Btscene

Discovery Channel - Inside Area 51
The mysterious place of secret aircraft, covert military bases that don't exist on any maps
and strange conspiracy theories. Follow the accusations of closed-door alien autopsies and
other covert operations.
Format : DivX
Format/Info : AVI
File size : 354 MiB
Duration : 43mn 22s
Overall bit rate : 1 140 Kbps
Video
Format : MPEG-4 Visual
Codec ID/Hint : DivX 5
Bit rate : 1 000 Kbps
Width : 640 pixels
Height : 464 pixels
Display aspect ratio : 1.379
Frame rate : 29.970 fps
Color space : YUV
Chroma subsampling : 4:2:0
Bit depth : 8 bits
Scan type : Progressive
Compression mode : Lossy
Bits/(Pixel*Frame) : 0.112
Stream size : 310 MiB (88%)
Title : Video
Writing library : DivX 1670
Audio
Format : MPEG Audio
Mode : Dual mono
Codec ID/Hint : MP3
Bit rate mode : Constant
Bit rate : 128 Kbps
Channel(s) : 2 channels
Sampling rate : 44.1 KHz
Compression mode : Lossy
Stream size : 39.7 MiB (11%)

Kickasstorrents

Discovery Channel - Inside Area 51
The mysterious place of secret aircraft, covert military bases that don't exist on any maps
and strange conspiracy theories. Follow the accusations of closed-door alien autopsies and
other covert operations.
Format : DivX
Format/Info : AVI
File size : 354 MiB
Duration : 43mn 22s
Overall bit rate : 1 140 Kbps
Video
Format : MPEG-4 Visual
Codec ID/Hint : DivX 5
Bit rate : 1 000 Kbps
Width : 640 pixels
Height : 464 pixels
Display aspect ratio : 1.379
Frame rate : 29.970 fps
Color space : YUV
Chroma subsampling : 4:2:0
Bit depth : 8 bits
Scan type : Progressive
Compression mode : Lossy
Bits/(Pixel*Frame) : 0.112
Stream size : 310 MiB (88%)
Title : Video
Writing library : DivX 1670
Audio
Format : MPEG Audio
Mode : Dual mono
Codec ID/Hint : MP3
Bit rate mode : Constant
Bit rate : 128 Kbps
Channel(s) : 2 channels
Sampling rate : 44.1 KHz
Compression mode : Lossy
Stream size : 39.7 MiB (11%)

Sumotorrent

Discovery Channel - Inside Area 51

Files (1):

  • Discovery Channel - Inside Area 51.avi (354 MB)
Torrof does not host any content on its servers, but allows his users to search existing torrents for "Discovery Channel - Inside Area 51" and download it for free from most famous Torrent Trackers: #Torrentbit, #Btscene, #Kickasstorrents, #Filesh, #Torrentfunk, #Monova, #Bitsnoop, #Sumotorrent